Great Expectations (2012) 1080p BluRay x264 DTS-FGT

http://uploaded.net/file/rqydbvgy/Great.Expectations.2012.1080p.BluRay.x264.DTS-FGT.part11.rar
http://uploaded.net/file/5mqi5lls/Great.Expectations.2012.1080p.BluRay.x264.DTS-FGT.part10.rar
http://uploaded.net/file/2cdh4rvo/Great.Expectations.2012.1080p.BluRay.x264.DTS-FGT.part09.rar
http://uploaded.net/file/fc0h4lfg/Great.Expectations.2012.1080p.BluRay.x264.DTS-FGT.part08.rar
http://uploaded.net/file/0m1jxqhc/Great.Expectations.2012.1080p.BluRay.x264.DTS-FGT.part07.rar
http://uploaded.net/file/oiwd295r/Great.Expectations.2012.1080p.BluRay.x264.DTS-FGT.part06.rar
http://uploaded.net/file/v5och85d/Great.Expectations.2012.1080p.BluRay.x264.DTS-FGT.part05.rar
http://uploaded.net/file/wd5t1sqd/Great.Expectations.2012.1080p.BluRay.x264.DTS-FGT.part04.rar
http://uploaded.net/file/7dlu6yly/Great.Expectations.2012.1080p.BluRay.x264.DTS-FGT.part03.rar
http://uploaded.net/file/5c0vihn9/Great.Expectations.2012.1080p.BluRay.x264.DTS-FGT.part02.rar
http://uploaded.net/file/pc5gl8tp/Great.Expectations.2012.1080p.BluRay.x264.DTS-FGT.part01.rar


Code:


http://rapidgator.net/file/b2a89c865882fd469b89722067a3600d/Great.Expectations.2012.1080p.BluRay.x264.DTS-FGT.part12.rar.html
http://rapidgator.net/file/c1a34b6ecfc27c3911e43514f5861af3/Great.Expectations.2012.1080p.BluRay.x264.DTS-FGT.part08.rar.html
http://rapidgator.net/file/29eae456b32d67dddc3e13f4aeb3f078/Great.Expectations.2012.1080p.BluRay.x264.DTS-FGT.part06.rar.html
http://rapidgator.net/file/d4152bd3ad8631b2b9c9ebb0e286921e/Great.Expectations.2012.1080p.BluRay.x264.DTS-FGT.part09.rar.html
http://rapidgator.net/file/2fcef8ac60bbdfbb628f44b53181f5a1/Great.Expectations.2012.1080p.BluRay.x264.DTS-FGT.part02.rar.html
http://rapidgator.net/file/1cd170ffdbc143c0d3502116e4a2f8df/Great.Expectations.2012.1080p.BluRay.x264.DTS-FGT.part01.rar.html
http://rapidgator.net/file/df8e9e55ca5ea6e89fb4e43fbf708199/Great.Expectations.2012.1080p.BluRay.x264.DTS-FGT.part03.rar.html
http://rapidgator.net/file/364ad292ad2fca8a348b4176d8c01cb6/Great.Expectations.2012.1080p.BluRay.x264.DTS-FGT.part10.rar.html
http://rapidgator.net/file/b2b7614d663e4f6b6e5d53af5d348987/Great.Expectations.2012.1080p.BluRay.x264.DTS-FGT.part04.rar.html
http://rapidgator.net/file/d026140779c6501dbeb75950e3959f78/Great.Expectations.2012.1080p.BluRay.x264.DTS-FGT.part11.rar.html
http://rapidgator.net/file/f134b3ae6830ecfc92eea8d226b264c4/Great.Expectations.2012.1080p.BluRay.x264.DTS-FGT.part07.rar.html
http://rapidgator.net/file/9f9cdbcf269aa93448018837d6d04543/Great.Expectations.2012.1080p.BluRay.x264.DTS-FGT.part05.rar.html


Code:


http://uploadrocket.net/wotsdgndrcey/Great.Expectations.2012.1080p.BluRay.x264.DTS-FGT.part01.rar.html
http://uploadrocket.net/emjdgn9i393f/Great.Expectations.2012.1080p.BluRay.x264.DTS-FGT.part02.rar.html
http://uploadrocket.net/e83515hf0sg7/Great.Expectations.2012.1080p.BluRay.x264.DTS-FGT.part03.rar.html
http://uploadrocket.net/6faqdphx6pmh/Great.Expectations.2012.1080p.BluRay.x264.DTS-FGT.part04.rar.html
http://uploadrocket.net/j3km8n3dj96d/Great.Expectations.2012.1080p.BluRay.x264.DTS-FGT.part05.rar.html
http://uploadrocket.net/q76m0ows4lmf/Great.Expectations.2012.1080p.BluRay.x264.DTS-FGT.part06.rar.html
http://uploadrocket.net/6wxlq5r360dv/Great.Expectations.2012.1080p.BluRay.x264.DTS-FGT.part07.rar.html
http://uploadrocket.net/b33jqlmq7oo4/Great.Expectations.2012.1080p.BluRay.x264.DTS-FGT.part08.rar.html
http://uploadrocket.net/ebb0p74o1kgt/Great.Expectations.2012.1080p.BluRay.x264.DTS-FGT.part09.rar.html
http://uploadrocket.net/7uylibqlx0ck/Great.Expectations.2012.1080p.BluRay.x264.DTS-FGT.part10.rar.html
http://uploadrocket.net/mfym12a5fc72/Great.Expectations.2012.1080p.BluRay.x264.DTS-FGT.part11.rar.html
http://uploadrocket.net/543mo1jr3pg6/Great.Expectations.2012.1080p.BluRay.x264.DTS-FGT.part12.rar.html


Code:


http://www.imdb.com/title/tt1836808/

Code:


Video
ID                                      : 1
Format                                  : AVC
Format/Info                              : Advanced Video Codec
Format profile                          : [email protected]
Format settings, CABAC                  : Yes
Format settings, ReFrames                : 4 frames
Codec ID                                : V_MPEG4/ISO/AVC
Duration                                : 2h 8mn
Bit rate                                : 11.5 Mbps
Width                                    : 1 920 pixels
Height                                  : 816 pixels
Display aspect ratio                    : 2.35:1
Frame rate mode                          : Constant
Frame rate                              : 23.976 (24000/1001) fps
Color space                              : YUV
Chroma subsampling                      : 4:2:0
Bit depth                                : 8 bits
Scan type                                : Progressive
Bits/(Pixel*Frame)                      : 0.306
Stream size                              : 9.87 GiB (92%)
Writing library                          : x264 core 148 r2601 a0cd7d3
Encoding settings                        : cabac=1 / ref=4 / deblock=1:-2:-2 / analyse=0x3:0x113 / me=umh / subme=7 / psy=1 / psy_rd=1.00:0.15 / mixed_ref=1 / me_range=16 / chroma_me=1 / trellis=1 / 8x8dct=1 / cqm=0 / deadzone=21,11 / fast_pskip=1 / chroma_qp_offset=-3 / threads=12 / lookahead_threads=3 / sliced_threads=0 / nr=0 / decimate=1 / interlaced=0 / bluray_compat=0 / constrained_intra=0 / bframes=3 / b_pyramid=2 / b_adapt=2 / b_bias=0 / direct=3 / weightb=1 / open_gop=0 / weightp=2 / keyint=250 / keyint_min=25 / scenecut=40 / intra_refresh=0 / rc_lookahead=50 / rc=abr / mbtree=1 / bitrate=11500 / ratetol=1.0 / qcomp=0.60 / qpmin=0 / qpmax=69 / qpstep=4 / vbv_maxrate=31250 / vbv_bufsize=31250 / nal_hrd=none / filler=0 / ip_ratio=1.40 / aq=1:1.00
Language                                : English
Default                                  : Yes
Forced                                  : No

Audio
ID                                      : 2
Format                                  : DTS
Format/Info                              : Digital Theater Systems
Mode                                    : 16
Format settings, Endianness              : Big
Codec ID                                : A_DTS
Duration                                : 2h 8mn
Bit rate mode                            : Constant
Bit rate                                : 768 Kbps
Channel(s)                              : 6 channels
Channel positions                        : Front: L C R, Side: L R, LFE
Sampling rate                            : 48.0 KHz
Frame rate                              : 93.750 fps (512 spf)
Bit depth                                : 24 bits
Compression mode                        : Lossy
Stream size                              : 705 MiB (6%)
Language                                : English
Default                                  : Yes
Forced                                  : No

Text
ID                                      : 3
Format                                  : PGS
Muxing mode                              : zlib
Codec ID                                : S_HDMV/PGS
Codec ID/Info                            : Picture based subtitle format used on BDs/HD-DVDs
Title                                    : English-PGS
Language                                : English
Default                                  : No
Forced                                  : No

Menu
00:00:00.000                            : en:Chapter 01
00:11:05.998                            : en:Chapter 02
00:22:21.173                            : en:Chapter 03
00:32:04.964                            : en:Chapter 04
00:41:34.867                            : en:Chapter 05
00:54:22.509                            : en:Chapter 06
01:04:00.628                            : en:Chapter 07
01:13:26.985                            : en:Chapter 08
01:25:59.320                            : en:Chapter 09
01:36:41.587                            : en:Chapter 10
01:48:23.663                            : en:Chapter 11
01:59:26.284                            : en:Chapter 12



Download great.expectations.2012.1080p.bluray.x264.dts.fgt.zip
Direct Link


Download


Download great.expectations.2012.1080p.bluray.x264.dts.fgt.zip
Mediafire


Download


Download great.expectations.2012.1080p.bluray.x264.dts.fgt.zip
Privatefiles


Download

Both comments and pings are currently closed.

Comments are closed.